#TITLE:All about us;
#SUBTITLE:;
#ARTIST:Tatu;
#TITLETRANSLIT:;
#SUBTITLETRANSLIT:;
#ARTISTTRANSLIT:;
#CREDIT:;
#BANNER:All about us_logo.jpg;
#BACKGROUND:All about us_bg.jpg;
#LYRICSPATH:;
#CDTITLE:Lan.png;
#MUSIC:All about us.mp3;
#OFFSET:-0.020;
#SAMPLESTART:100.000;
#SAMPLELENGTH:12.000;
#SELECTABLE:YES;
#BPMS:0.000=162.080;
#STOPS:;
#BGCHANGES:;
// cache tags:
#FIRSTBEAT:12.000;
#LASTBEAT:331.500;
#SONGFILENAME:Songs/lan sky/All about us/All about us.sm;
#HASMUSIC:1;
#HASBANNER:1;
#MUSICLENGTH:124.098;
// end cache tags

//---------------dance-single - sky----------------
#NOTES:
     dance-single:
     sky:
     Hard:
     10:
     0.943,1.000,1.000,0.774,0.004,392.000,284.000,96.000,0.000,113.000:

0000
0000
0000
0000
,
0000
0000
0000
0000
,
0000
0000
0000
0000
,
1000
0001
1000
0001
0200
0000
0000
0300
,
0001
1000
0001
1000
0020
0000
0000
0030
,
0010
0100
0010
0100
0200
0000
0000
0300
,
0100
0010
0100
0010
0020
0000
0000
0030
,
1000
1000
1000
1000
0200
0000
0000
0300
,
0001
0001
0001
0001
0020
0000
0000
0030
,
0100
0100
0100
0100
0002
0000
0000
0003
,
0010
0010
0010
0010
2000
0000
0000
3000
,
1100
0011
1100
0011
0220
0000
0000
0330
,
0011
1100
0011
1100
0220
0000
0000
0330
,
1010
0101
1010
0101
0220
0000
0000
0330
,
0101
1010
0101
1010
0220
0000
0000
0330
,
1100
1100
1100
1100
0022
0000
0000
0033
,
0011
0000
0011
0000
0011
0000
0011
0000
2000
0000
0000
0000
0100
0010
3001
0000
,
0011
0101
2002
0000
0000
3003
1100
1010
,
2002
0000
0000
3003
1001
0110
1001
0000
,
1001
0000
0110
0101
1100
2010
0000
0000
,
3110
1010
0011
0000
1010
1100
1001
0000
,
0110
0000
0011
1001
0011
0201
0000
0000
,
1301
0110
0011
0000
0110
1100
1100
0000
,
0011
0000
1010
0011
0210
0000
1001
0000
,
1310
0000
0101
0000
1001
0101
0011
0000
,
0110
0000
1001
1010
1001
2100
0000
0000
,
3110
0101
1100
0000
0011
0101
1001
0000
,
0101
0000
0110
1010
0110
0012
0000
0000
,
0113
1100
0101
0000
0021
0000
1100
0000
,
0131
0000
1100
0110
0012
0000
1010
0000
,
1203
0000
0011
0000
1310
0101
0011
0000
,
1200
1000
0321
0001
,
1130
0110
0011
0000
0011
0110
1100
0000
,
0021
0001
1230
1000
,
0311
0110
1100
0000
1100
0110
0011
0000
,
2100
0100
3012
0010
,
1103
0110
0011
0000
0011
0110
1100
0000
,
0012
0010
2103
0100
,
3011
0110
1100
0000
1100
0110
0011
0000
,
2000
0000
0020
0000
0000
0031
0000
0000
,
3220
0000
0000
0031
0000
0000
0000
0000
,
0320
0000
0200
0000
0000
1300
0000
0000
,
0232
0000
0000
1300
0000
0000
0000
0000
,
0023
0000
2000
0000
0000
3001
0000
0000
,
2230
0000
0000
3002
0000
0000
0023
0000
,
2300
0000
0030
0000
,
3201
0000
0000
0001
1000
0001
1000
0001
,
0320
0000
2000
0000
0000
3100
0000
0000
,
2032
0000
0000
3200
0000
0000
0310
0000
,
0023
0000
0002
0000
0000
0103
0000
0000
,
0232
0000
0000
1003
0000
0000
0000
0000
,
2300
0000
0020
0000
0000
0031
0000
0000
,
3220
0000
0000
0032
0000
0000
2003
0000
,
0320
0000
0000
0000
,
3030
0000
0000
0000
1010
0101
1010
0000
,
1001
1001
1100
0110
1001
0000
0011
0000
,
0110
0011
1010
0000
0110
1100
0101
0000
,
1001
1100
0110
0011
1001
0000
0110
0000
,
1001
0110
0011
0000
1001
0110
1100
0000
,
0101
0101
0011
0110
1100
0000
0011
0000
,
0022
0000
0000
0000
1133
0011
1100
0000
,
1011
0000
0110
1101
1100
1021
0000
0000
,
0130
1011
0011
0000
1010
1110
1001
0000
,
0111
0000
0011
1011
0011
1102
0000
0000
,
1003
1110
0011
0000
0110
1101
1100
0000
,
0111
0000
1010
1011
0211
0000
1010
0000
,
1301
0000
0111
0000
1001
0111
0011
0000
,
1110
0000
1001
1110
1001
1201
0000
0000
,
0310
0111
1100
0000
0011
0111
1001
0000
,
1110
0000
0110
1110
0110
1021
0000
0000
,
0130
1101
0101
0000
0121
0000
1100
0000
,
1031
0000
1100
0111
0211
0000
1001
0000
,
1310
0000
0111
0000
1100
0111
0011
0000
,
1201
0001
1010
0010
1321
1000
0101
0001
,
1130
0110
0011
0000
0011
0110
1100
0000
,
1021
1000
0101
0001
1231
0010
1010
1000
,
0311
0111
1100
0000
1100
1110
0011
0000
,
2110
0100
0101
0010
3112
0100
1010
1000
,
1103
1110
0011
0000
0011
0111
1100
0000
,
0112
0100
1010
0100
2113
0001
0101
0010
,
3011
1110
1100
0000
1100
0111
0011
0000
,
2112
0010
0110
0100
3113
0110
0110
0110
,
2220
0000
0000
3330
0222
0000
0000
0333
;
